osu file format v14

[General]
AudioFilename: BELIEVE.mp3
AudioLeadIn: 1500
PreviewTime: 58868
Countdown: 0
SampleSet: Normal
StackLeniency: 0.7
Mode: 1
LetterboxInBreaks: 0
WidescreenStoryboard: 0

[Editor]
DistanceSpacing: 1
BeatDivisor: 4
GridSize: 32
TimelineZoom: 2.2

[Metadata]
Title:believe~TV size~
TitleUnicode:believe~TV size~
Artist:Kalafina
ArtistUnicode:Kalafina
Creator:Setsurei
Version:Kurosanyan's Oni
Source:Fate/stay night [Unlimited Blade Works]
Tags:フェイト/ステイナイトアンリミテッドブレイドワークス Type-Moon ufotable Tohsaka Rin Archer Ending ED Sony Music Kurosanyan
BeatmapID:539319
BeatmapSetID:231734

[Difficulty]
HPDrainRate:7
CircleSize:4
OverallDifficulty:5
ApproachRate:5
SliderMultiplier:1.4
SliderTickRate:1

[Events]
//Background and Video events
0,0,"BG.jpg",0,0
//Break Periods
//Storyboard Layer 0 (Background)
//Storyboard Layer 1 (Fail)
//Storyboard Layer 2 (Pass)
//Storyboard Layer 3 (Foreground)
//Storyboard Sound Samples
//Background Colour Transformations
3,100,163,162,255

[TimingPoints]
1945,384.615384615385,4,1,0,30,1,0
4925,-133.333333333333,4,1,0,75,0,0
10983,-100,4,1,0,65,0,0
14060,-100,4,1,0,75,0,0
37810,-100,4,1,0,85,0,0
38195,-133.333333333333,4,1,0,85,0,0
56752,-100,4,1,0,85,0,0
58868,-100,4,1,0,85,0,1
83483,-66.6666666666667,4,1,0,85,0,0

[Colours]
Combo1 : 191,97,85
Combo2 : 126,109,85
Combo3 : 216,163,117
Combo4 : 142,142,123

[HitObjects]
256,192,1945,12,0,4829,0:0:0:0:
256,192,5021,5,8,0:0:0:0:
256,192,5214,1,0,0:0:0:0:
256,192,5406,1,0,0:0:0:0:
256,192,5598,1,8,0:0:0:0:
256,192,6175,1,8,0:0:0:0:
256,192,6560,5,8,0:0:0:0:
256,192,6752,1,0,0:0:0:0:
256,192,6945,1,0,0:0:0:0:
256,192,7137,1,8,0:0:0:0:
256,192,7329,1,0,0:0:0:0:
256,192,7521,1,0,0:0:0:0:
256,192,7714,1,8,0:0:0:0:
256,192,8098,5,8,0:0:0:0:
256,192,8291,1,0,0:0:0:0:
256,192,8483,1,0,0:0:0:0:
256,192,8675,1,8,0:0:0:0:
256,192,9252,1,8,0:0:0:0:
256,192,9637,5,8,0:0:0:0:
256,192,9829,1,0,0:0:0:0:
256,192,10021,1,8,0:0:0:0:
256,192,10214,1,8,0:0:0:0:
256,192,10791,1,8,0:0:0:0:
256,192,11175,1,0,0:0:0:0:
256,192,11271,1,0,0:0:0:0:
256,192,11368,1,0,0:0:0:0:
256,192,11560,1,8,0:0:0:0:
256,192,11752,1,0,0:0:0:0:
256,192,11848,1,0,0:0:0:0:
256,192,11945,1,8,0:0:0:0:
256,192,12137,1,8,0:0:0:0:
256,192,12329,1,0,0:0:0:0:
256,192,12425,1,0,0:0:0:0:
256,192,12521,1,0,0:0:0:0:
256,192,12714,1,8,0:0:0:0:
256,192,12906,1,0,0:0:0:0:
256,192,13002,1,0,0:0:0:0:
256,192,13098,1,0,0:0:0:0:
256,192,13291,1,8,0:0:0:0:
256,192,13483,1,0,0:0:0:0:
256,192,13579,1,0,0:0:0:0:
256,192,13675,1,0,0:0:0:0:
256,192,13868,5,12,0:0:0:0:
256,192,14252,1,0,0:0:0:0:
256,192,14445,1,0,0:0:0:0:
256,192,14541,1,0,0:0:0:0:
256,192,14637,1,0,0:0:0:0:
256,192,14829,1,0,0:0:0:0:
256,192,14925,1,0,0:0:0:0:
256,192,15021,1,0,0:0:0:0:
256,192,15214,1,0,0:0:0:0:
256,192,15406,1,0,0:0:0:0:
256,192,15598,1,0,0:0:0:0:
256,192,15695,1,0,0:0:0:0:
256,192,15791,1,0,0:0:0:0:
256,192,15983,1,0,0:0:0:0:
256,192,16079,1,0,0:0:0:0:
256,192,16175,1,0,0:0:0:0:
256,192,16368,1,0,0:0:0:0:
256,192,16560,1,0,0:0:0:0:
256,192,16656,1,0,0:0:0:0:
256,192,16752,1,0,0:0:0:0:
256,192,16848,1,0,0:0:0:0:
256,192,16945,1,0,0:0:0:0:
256,192,17137,1,0,0:0:0:0:
256,192,17329,1,0,0:0:0:0:
256,192,17521,1,0,0:0:0:0:
256,192,17618,1,0,0:0:0:0:
256,192,17714,1,0,0:0:0:0:
256,192,17906,1,0,0:0:0:0:
256,192,18002,1,0,0:0:0:0:
256,192,18098,1,0,0:0:0:0:
256,192,18291,1,0,0:0:0:0:
256,192,18483,1,0,0:0:0:0:
256,192,18579,1,0,0:0:0:0:
256,192,18675,1,0,0:0:0:0:
256,192,18771,1,0,0:0:0:0:
256,192,18868,1,0,0:0:0:0:
256,192,19060,1,0,0:0:0:0:
256,192,19252,1,0,0:0:0:0:
256,192,19348,1,0,0:0:0:0:
256,192,19445,1,0,0:0:0:0:
256,192,19637,1,0,0:0:0:0:
256,192,19733,1,0,0:0:0:0:
256,192,19829,1,0,0:0:0:0:
256,192,20021,5,12,0:0:0:0:
256,192,20406,1,0,0:0:0:0:
256,192,20598,1,0,0:0:0:0:
256,192,20695,1,0,0:0:0:0:
256,192,20791,1,0,0:0:0:0:
256,192,20983,1,0,0:0:0:0:
256,192,21079,1,0,0:0:0:0:
256,192,21175,1,0,0:0:0:0:
256,192,21368,1,0,0:0:0:0:
256,192,21560,1,0,0:0:0:0:
256,192,21752,1,0,0:0:0:0:
256,192,21848,1,0,0:0:0:0:
256,192,21945,1,0,0:0:0:0:
256,192,22137,1,0,0:0:0:0:
256,192,22233,1,0,0:0:0:0:
256,192,22329,1,0,0:0:0:0:
256,192,22521,1,0,0:0:0:0:
256,192,22714,1,0,0:0:0:0:
256,192,22810,1,0,0:0:0:0:
256,192,22906,1,0,0:0:0:0:
256,192,23002,1,0,0:0:0:0:
256,192,23098,1,0,0:0:0:0:
256,192,23291,1,0,0:0:0:0:
256,192,23483,1,0,0:0:0:0:
256,192,23675,1,0,0:0:0:0:
256,192,23771,1,0,0:0:0:0:
256,192,23868,1,0,0:0:0:0:
256,192,24060,1,0,0:0:0:0:
256,192,24156,1,0,0:0:0:0:
256,192,24252,1,0,0:0:0:0:
256,192,24445,1,0,0:0:0:0:
256,192,24637,1,0,0:0:0:0:
256,192,24829,1,0,0:0:0:0:
256,192,24925,1,0,0:0:0:0:
256,192,25021,1,0,0:0:0:0:
256,192,25214,1,0,0:0:0:0:
256,192,25406,1,0,0:0:0:0:
256,192,25502,1,0,0:0:0:0:
256,192,25598,1,0,0:0:0:0:
256,192,25791,5,4,0:0:0:0:
256,192,25983,5,4,0:0:0:0:
256,192,26175,5,12,0:0:0:0:
256,192,26560,1,0,0:0:0:0:
256,192,26752,1,0,0:0:0:0:
256,192,26848,1,0,0:0:0:0:
256,192,26945,1,0,0:0:0:0:
256,192,27137,1,0,0:0:0:0:
256,192,27233,1,0,0:0:0:0:
256,192,27329,1,0,0:0:0:0:
256,192,27521,1,0,0:0:0:0:
256,192,27618,1,0,0:0:0:0:
256,192,27714,1,8,0:0:0:0:
256,192,27906,1,8,0:0:0:0:
256,192,28098,1,0,0:0:0:0:
256,192,28291,1,8,0:0:0:0:
256,192,28387,1,0,0:0:0:0:
256,192,28483,1,0,0:0:0:0:
256,192,28675,1,8,0:0:0:0:
256,192,28771,1,0,0:0:0:0:
256,192,28868,1,0,0:0:0:0:
256,192,29060,1,0,0:0:0:0:
256,192,29156,1,0,0:0:0:0:
256,192,29252,1,8,0:0:0:0:
256,192,29445,1,8,0:0:0:0:
256,192,29637,1,0,0:0:0:0:
256,192,29829,1,0,0:0:0:0:
256,192,29925,1,0,0:0:0:0:
256,192,30021,1,0,0:0:0:0:
256,192,30214,1,0,0:0:0:0:
256,192,30310,1,0,0:0:0:0:
256,192,30406,1,0,0:0:0:0:
256,192,30598,1,0,0:0:0:0:
256,192,30695,1,0,0:0:0:0:
256,192,30791,1,8,0:0:0:0:
256,192,30983,1,8,0:0:0:0:
256,192,31175,1,0,0:0:0:0:
256,192,31368,1,8,0:0:0:0:
256,192,31464,1,8,0:0:0:0:
256,192,31560,1,0,0:0:0:0:
256,192,31752,1,8,0:0:0:0:
256,192,31848,1,8,0:0:0:0:
256,192,31945,1,0,0:0:0:0:
256,192,32041,1,0,0:0:0:0:
256,192,32137,1,0,0:0:0:0:
256,192,32329,5,12,0:0:0:0:
256,192,32714,1,0,0:0:0:0:
256,192,32906,1,0,0:0:0:0:
256,192,33002,1,0,0:0:0:0:
256,192,33098,1,0,0:0:0:0:
256,192,33291,1,0,0:0:0:0:
256,192,33387,1,0,0:0:0:0:
256,192,33483,1,0,0:0:0:0:
256,192,33675,1,0,0:0:0:0:
256,192,33771,1,0,0:0:0:0:
256,192,33868,1,8,0:0:0:0:
256,192,34060,1,8,0:0:0:0:
256,192,34252,1,0,0:0:0:0:
256,192,34445,1,8,0:0:0:0:
256,192,34541,1,0,0:0:0:0:
256,192,34637,1,0,0:0:0:0:
256,192,34829,1,8,0:0:0:0:
256,192,34925,1,0,0:0:0:0:
256,192,35021,1,8,0:0:0:0:
256,192,35118,1,8,0:0:0:0:
256,192,35214,1,0,0:0:0:0:
256,192,35406,1,8,0:0:0:0:
256,192,35791,1,0,0:0:0:0:
256,192,35983,1,0,0:0:0:0:
256,192,36079,1,0,0:0:0:0:
256,192,36175,1,8,0:0:0:0:
256,192,36368,1,8,0:0:0:0:
256,192,36560,1,0,0:0:0:0:
256,192,36656,1,0,0:0:0:0:
256,192,36752,1,8,0:0:0:0:
256,192,36945,1,8,0:0:0:0:
256,192,37329,1,0,0:0:0:0:
256,192,37521,1,0,0:0:0:0:
256,192,37714,1,0,0:0:0:0:
256,192,37906,5,12,0:0:0:0:
256,192,38483,1,0,0:0:0:0:
256,192,38868,5,4,0:0:0:0:
256,192,39252,1,0,0:0:0:0:
256,192,39445,1,0,0:0:0:0:
256,192,39637,5,12,0:0:0:0:
256,192,40021,1,0,0:0:0:0:
256,192,40214,1,0,0:0:0:0:
256,192,40406,1,0,0:0:0:0:
256,192,40598,1,8,0:0:0:0:
256,192,40791,1,0,0:0:0:0:
256,192,41175,5,12,0:0:0:0:
256,192,41560,1,0,0:0:0:0:
256,192,41945,1,0,0:0:0:0:
256,192,42137,1,8,0:0:0:0:
256,192,42329,1,0,0:0:0:0:
256,192,42521,1,0,0:0:0:0:
256,192,42714,5,12,0:0:0:0:
256,192,43098,1,0,0:0:0:0:
256,192,43291,1,8,0:0:0:0:
256,192,43483,1,0,0:0:0:0:
256,192,43675,1,0,0:0:0:0:
256,192,43868,1,0,0:0:0:0:
256,192,44060,5,12,0:0:0:0:
256,192,44637,1,0,0:0:0:0:
256,192,44829,1,0,0:0:0:0:
256,192,45021,5,4,0:0:0:0:
256,192,45406,1,0,0:0:0:0:
256,192,45598,1,0,0:0:0:0:
256,192,45791,5,12,0:0:0:0:
256,192,46175,1,0,0:0:0:0:
256,192,46368,1,0,0:0:0:0:
256,192,46560,1,0,0:0:0:0:
256,192,46752,1,8,0:0:0:0:
256,192,46945,1,0,0:0:0:0:
256,192,47329,5,12,0:0:0:0:
256,192,47714,1,0,0:0:0:0:
256,192,48098,1,0,0:0:0:0:
256,192,48291,1,8,0:0:0:0:
256,192,48483,1,0,0:0:0:0:
256,192,48675,1,0,0:0:0:0:
256,192,48868,5,12,0:0:0:0:
256,192,49252,1,0,0:0:0:0:
256,192,49445,1,8,0:0:0:0:
256,192,49637,1,0,0:0:0:0:
256,192,49829,1,0,0:0:0:0:
256,192,50021,1,0,0:0:0:0:
256,192,50214,5,12,0:0:0:0:
256,192,50791,1,0,0:0:0:0:
256,192,50983,1,0,0:0:0:0:
256,192,51175,5,4,0:0:0:0:
256,192,51560,1,0,0:0:0:0:
256,192,51752,1,0,0:0:0:0:
256,192,51945,5,12,0:0:0:0:
256,192,52137,1,0,0:0:0:0:
256,192,52329,1,0,0:0:0:0:
256,192,52521,1,0,0:0:0:0:
256,192,52906,1,8,0:0:0:0:
256,192,53098,1,0,0:0:0:0:
256,192,53291,1,0,0:0:0:0:
256,192,53483,5,12,0:0:0:0:
256,192,53868,1,0,0:0:0:0:
256,192,54252,1,0,0:0:0:0:
256,192,54445,1,8,0:0:0:0:
256,192,54637,1,0,0:0:0:0:
256,192,54829,1,0,0:0:0:0:
256,192,55021,5,12,0:0:0:0:
256,192,55406,1,0,0:0:0:0:
256,192,55598,1,8,0:0:0:0:
256,192,55791,1,0,0:0:0:0:
256,192,55983,1,8,0:0:0:0:
256,192,56175,1,0,0:0:0:0:
256,192,56368,1,0,0:0:0:0:
256,192,56560,5,12,0:0:0:0:
256,192,56945,5,4,0:0:0:0:
256,192,57137,1,8,0:0:0:0:
256,192,57233,1,8,0:0:0:0:
256,192,57329,1,0,0:0:0:0:
256,192,57521,1,8,0:0:0:0:
256,192,57618,1,8,0:0:0:0:
256,192,57714,1,0,0:0:0:0:
256,192,57906,1,8,0:0:0:0:
256,192,58002,1,8,0:0:0:0:
256,192,58098,1,0,0:0:0:0:
256,192,58291,1,0,0:0:0:0:
256,192,58387,1,0,0:0:0:0:
256,192,58483,1,8,0:0:0:0:
256,192,58579,1,0,0:0:0:0:
256,192,58675,1,8,0:0:0:0:
256,192,58868,5,4,0:0:0:0:
256,192,59060,1,0,0:0:0:0:
256,192,59156,1,0,0:0:0:0:
256,192,59252,1,8,0:0:0:0:
256,192,59445,1,0,0:0:0:0:
256,192,59541,1,0,0:0:0:0:
256,192,59637,1,0,0:0:0:0:
256,192,59733,1,0,0:0:0:0:
256,192,59829,1,0,0:0:0:0:
256,192,60021,1,8,0:0:0:0:
256,192,60214,1,0,0:0:0:0:
256,192,60406,1,0,0:0:0:0:
256,192,60598,1,0,0:0:0:0:
256,192,60695,1,0,0:0:0:0:
256,192,60791,1,8,0:0:0:0:
256,192,60983,1,8,0:0:0:0:
256,192,61175,1,0,0:0:0:0:
256,192,61271,1,0,0:0:0:0:
256,192,61368,1,8,0:0:0:0:
256,192,61560,1,8,0:0:0:0:
256,192,61752,1,8,0:0:0:0:
256,192,61945,1,0,0:0:0:0:
256,192,62137,1,0,0:0:0:0:
256,192,62233,1,0,0:0:0:0:
256,192,62329,1,8,0:0:0:0:
256,192,62521,1,0,0:0:0:0:
256,192,62618,1,0,0:0:0:0:
256,192,62714,1,0,0:0:0:0:
256,192,62810,1,0,0:0:0:0:
256,192,62906,1,0,0:0:0:0:
256,192,63098,1,8,0:0:0:0:
256,192,63291,1,8,0:0:0:0:
256,192,63483,1,0,0:0:0:0:
256,192,63579,1,0,0:0:0:0:
256,192,63675,1,0,0:0:0:0:
256,192,63868,5,12,0:0:0:0:
256,192,64252,1,0,0:0:0:0:
256,192,64348,1,0,0:0:0:0:
256,192,64445,1,0,0:0:0:0:
256,192,64637,5,12,0:0:0:0:
256,192,65021,1,0,0:0:0:0:
256,192,65214,1,0,0:0:0:0:
256,192,65310,1,0,0:0:0:0:
256,192,65406,1,8,0:0:0:0:
256,192,65598,1,8,0:0:0:0:
256,192,65695,1,8,0:0:0:0:
256,192,65791,1,0,0:0:0:0:
256,192,65887,1,8,0:0:0:0:
256,192,65983,1,0,0:0:0:0:
256,192,66175,1,8,0:0:0:0:
256,192,66368,1,0,0:0:0:0:
256,192,66560,1,0,0:0:0:0:
256,192,66752,1,0,0:0:0:0:
256,192,66848,1,0,0:0:0:0:
256,192,66945,1,8,0:0:0:0:
256,192,67137,1,8,0:0:0:0:
256,192,67233,1,8,0:0:0:0:
256,192,67329,1,0,0:0:0:0:
256,192,67425,1,8,0:0:0:0:
256,192,67521,1,0,0:0:0:0:
256,192,67714,1,8,0:0:0:0:
256,192,67906,1,8,0:0:0:0:
256,192,68098,1,0,0:0:0:0:
256,192,68291,1,0,0:0:0:0:
256,192,68387,1,0,0:0:0:0:
256,192,68483,1,8,0:0:0:0:
256,192,68675,1,0,0:0:0:0:
256,192,68771,1,0,0:0:0:0:
256,192,68868,1,0,0:0:0:0:
256,192,68964,1,0,0:0:0:0:
256,192,69060,1,0,0:0:0:0:
256,192,69252,1,8,0:0:0:0:
256,192,69445,1,8,0:0:0:0:
256,192,69637,5,4,0:0:0:0:
256,192,70021,5,12,0:0:0:0:
256,192,70406,5,4,0:0:0:0:
256,192,70791,5,12,0:0:0:0:
256,192,71175,5,4,0:0:0:0:
256,192,71368,1,0,0:0:0:0:
256,192,71464,1,0,0:0:0:0:
256,192,71560,1,8,0:0:0:0:
256,192,71752,1,0,0:0:0:0:
256,192,71848,1,0,0:0:0:0:
256,192,71945,1,0,0:0:0:0:
256,192,72041,1,0,0:0:0:0:
256,192,72137,1,0,0:0:0:0:
256,192,72329,1,8,0:0:0:0:
256,192,72521,1,0,0:0:0:0:
256,192,72714,1,0,0:0:0:0:
256,192,72906,1,0,0:0:0:0:
256,192,73002,1,0,0:0:0:0:
256,192,73098,1,8,0:0:0:0:
256,192,73291,1,8,0:0:0:0:
256,192,73483,1,0,0:0:0:0:
256,192,73579,1,0,0:0:0:0:
256,192,73675,1,8,0:0:0:0:
256,192,73868,1,8,0:0:0:0:
256,192,74060,1,8,0:0:0:0:
256,192,74252,1,0,0:0:0:0:
256,192,74445,1,0,0:0:0:0:
256,192,74541,1,0,0:0:0:0:
256,192,74637,1,8,0:0:0:0:
256,192,74829,1,0,0:0:0:0:
256,192,74925,1,0,0:0:0:0:
256,192,75021,1,0,0:0:0:0:
256,192,75118,1,0,0:0:0:0:
256,192,75214,1,0,0:0:0:0:
256,192,75406,5,12,0:0:0:0:
256,192,75791,1,0,0:0:0:0:
256,192,75887,1,0,0:0:0:0:
256,192,75983,1,0,0:0:0:0:
256,192,76175,5,12,0:0:0:0:
256,192,76560,5,4,0:0:0:0:
256,192,76945,5,12,0:0:0:0:
256,192,77329,5,4,0:0:0:0:
256,192,77521,1,0,0:0:0:0:
256,192,77618,1,0,0:0:0:0:
256,192,77714,1,8,0:0:0:0:
256,192,77906,1,8,0:0:0:0:
256,192,78002,1,8,0:0:0:0:
256,192,78098,1,0,0:0:0:0:
256,192,78195,1,8,0:0:0:0:
256,192,78291,1,0,0:0:0:0:
256,192,78483,1,8,0:0:0:0:
256,192,78675,1,0,0:0:0:0:
256,192,78868,1,0,0:0:0:0:
256,192,79060,1,0,0:0:0:0:
256,192,79156,1,0,0:0:0:0:
256,192,79252,1,8,0:0:0:0:
256,192,79445,1,8,0:0:0:0:
256,192,79541,1,8,0:0:0:0:
256,192,79637,1,0,0:0:0:0:
256,192,79733,1,8,0:0:0:0:
256,192,79829,1,0,0:0:0:0:
256,192,80021,1,8,0:0:0:0:
256,192,80214,1,8,0:0:0:0:
256,192,80406,5,4,0:0:0:0:
256,192,80598,1,0,0:0:0:0:
256,192,80695,1,0,0:0:0:0:
256,192,80791,1,8,0:0:0:0:
256,192,80983,1,0,0:0:0:0:
256,192,81079,1,0,0:0:0:0:
256,192,81175,1,0,0:0:0:0:
256,192,81368,1,0,0:0:0:0:
256,192,81560,1,8,0:0:0:0:
256,192,81945,1,0,0:0:0:0:
256,192,82041,1,0,0:0:0:0:
256,192,82137,1,8,0:0:0:0:
256,192,82233,1,8,0:0:0:0:
256,192,82329,1,0,0:0:0:0:
256,192,82425,1,0,0:0:0:0:
256,192,82521,1,8,0:0:0:0:
256,192,82618,1,8,0:0:0:0:
256,192,82714,1,0,0:0:0:0:
256,192,82810,1,0,0:0:0:0:
256,192,82906,1,0,0:0:0:0:
256,192,83002,1,0,0:0:0:0:
256,192,83098,1,8,0:0:0:0:
256,192,83195,1,8,0:0:0:0:
256,192,83291,1,8,0:0:0:0:
256,192,83483,12,0,86368,0:0:0:0:
256,192,86560,5,4,0:0:0:0:
